Offizielles Forum der Grillzange United
 
StartseiteStatistikAnmeldenLogin

Teilen
 

 The Quest Web Dl 1080p

Nach unten 
AutorNachricht
Gast
Gast



The Quest Web Dl 1080p Empty
BeitragThema: The Quest Web Dl 1080p   The Quest Web Dl 1080p EmptyDi Jun 09, 2015 4:01 am

The Quest Web Dl 1080p, relax already home


Sharing Widget. Related Torrents. Written by AllOuttaGum32.47K Last edited by HandofDoom, 2monthsago report summary add Archer (2009) to bookmarks IMDb rating: 8.9 (54,944 votes) Language: English Subtitles: English Genres: Comedy, Adult Cartoons . torrent name size files age seed leech 3 Archer 2009 S06E05 Vision Quest 720p WEB-DL x264 AAC Posted by loadstone in TV 218.75 MB 2 4months 44 4 Archer S06E05 Vision Quest (1920x1080) [Phr0stY].mkv Posted by Phr0sty420 in TV 756.57 MB 1 4months 24 1 Archer 2009 S06E05 Vision Quest WEB-DL x264 AAC Posted by loadstone in TV 95.37 MB 2 4months 15 0 8 Archer 2009 S06E05 Vision Quest 1080p WEB-DL DD5 1 H 264-BS[rarbg] Posted by Dr.Mokum in TV 756.6 MB 3 4months 61 5 3 Archer S06E05 Vision Quest 1080p WEB-DL AAC HEVC x265 MEANDRAGON.mkv Posted by MeanDragon in TV 69.78 MB 1 4months 3 3 . View all Archer (2009) episodes Episode title: Vision Quest Episode: S06E05 Air date: 05 February 2015 IMDb link: 1486217 Original run: 17 September 2009 Present Summary: At a international spy agency, global crises are merely opportunities for its highly trained employees to confuse, undermine, betray and royally screw each other.

Please watch before rating or commenting on quality. Download torrent 95.19 MB seeders:1 leechers:0 Archer S06E05 Vision Quest (1080p x265 HEVC AAC 5.1 Joy)[UTR] . . Any questions, or help playing this file, click on the HEVC banner just above. Thank you KickAss community! Encoding info: show spoiler Format : MPEG-4 Format profile : Base Media / Version 2 Codec ID : mp42 File size : 95.2 MiB Duration : 20mn 35s Overall bit rate mode : Variable Overall bit rate : 647 Kbps Writing application : HandBrake 0.10.0 2014112200 Video ID : 1 Format : HEVC Format/Info : High Efficiency Video Coding Format profile : MainL4.0 Codec ID : hev1 Codec ID/Info : High Efficiency Video Coding Duration : 20mn 35s Bit rate : 449 Kbps Width : 1 920 pixels Height : 1 080 pixels Display aspect ratio : 16:9 Frame rate mode : Variable Frame rate : 23.976 fps Minimum frame rate : 23.974 fps Maximum frame rate : 23.981 fps Color space : YUV Chroma subsampling : 4:2:0 Bit depth : 8 bits Bits/(Pixel*Frame) : 0.009 Stream size : 66.1 MiB (69%) Writing library : x265 1.4:[Windows][GCC 4.9.0][64 bit] Encoding settings : wpp / ctu=64 / tu-intra-depth=2 / tu-inter-depth=2 / me=3 / subme=3 / merange=57 / rect / amp / max-merge=3 / temporal-mvp / no-early-skip / no-fast-cbf / rdpenalty=0 / no-tskip / no-tskip-fast / strong-intra-smoothing / no-lossless / no-cu-lossless / no-constrained-intra / no-fast-intra / open-gop / interlace=0 / keyint=240 / min-keyint=24 / scenecut=40 / rc-lookahead=30 / bframes=8 / bframe-bias=0 / b-adapt=2 / ref=3 / weightp / weightb / aq-mode=2 / aq-strength=1.00 / cbqpoffs=0 / crqpoffs=0 / rd=6 / psy-rd=0.00 / psy-rdoq=0.00 / signhide / lft / sao / no-sao-non-deblock / b-pyramid / cutree / rc=2 / pass / bitrate=450 / ratetol=1.0 / qcomp=0.60 / qpmin=0 / qpmax=51 / qpstep=4 / cplxblur=20.0 / qblur=0.5 / ipratio=1.40 / pbratio=1.30 Color primaries : BT.709 Transfer characteristics : BT.709 Matrix coefficients : BT.709 Color range : Limited Audio ID : 2 Format : AAC Format/Info : Advanced Audio Codec Format profile : HE-AACv2 / HE-AAC / LC Codec ID : 40 Duration : 20mn 35s Bit rate mode : Variable Bit rate : 192 Kbps Channel(s) : 2 channels / 6 channels / 6 channels Channel positions : Front: L R / Front: L C R, Side: L R, LFE / Front: L C R, Side: L R, LFE Sampling rate : 48.0 KHz / 48.0 KHz / 24.0 KHz Compression mode : Lossy Stream size : 28.3 MiB (30%) Title : Surround / Surround Language : English Text ID : 3 Format : Timed Text Muxing mode : sbtl Codec ID : tx3g Duration : 20mn 26s Bit rate mode : Variable Bit rate : 125 bps Stream size : 18.7 KiB (0%) Language : English . Description Archer S06E05 Vision Quest, in 1080p in x265 aka HEVC and AAC 5.1 audio all for about 95MB! Encoded using 2 pass, from the webrip, with the slow setting for the highest quality possible. Archer S06E05 Vision Quest (1080p x265 HEVC AAC 5.1 Joy)[UTR] (Size: 95.19 MB) Archer S06E05 Vision Quest (1080p x265 Joy).m4v 95.19 MB How to play HEVC.txt 1.36 KB .

Nach oben Nach unten
 
The Quest Web Dl 1080p
Nach oben 
Seite 1 von 1

Befugnisse in diesem ForumSie können in diesem Forum nicht antworten
Grillzange United :: Öffentlich & Aktuelles :: Kritiken am Forum-
Gehe zu: